<?xml version="1.0" standalone="no"?>
<!DOCTYPE svg PUBLIC "-//W3C//DTD SVG 1.1//EN" "http://www.w3.org/Graphics/SVG/1.1/DTD/svg11.dtd" >
<svg xmlns="http://www.w3.org/2000/svg">
<metadata>Generated by IcoMoon</metadata>
<defs>
<font id="iconKalles" horiz-adv-x="1024">
<font-face units-per-em="1024" ascent="960" descent="-64" />
<missing-glyph horiz-adv-x="1024" />
<glyph unicode="&#x20;" horiz-adv-x="512" d="" />
<glyph unicode="&#xe900;" glyph-name="bell" d="M768 634.182c0 141.385-114.615 256-256 256s-256-114.615-256-256c0-146.333-27.102-259.258-72.66-342.781-11.477-21.041-23.078-38.562-34.183-52.856h725.686c-11.105 14.294-22.706 31.815-34.183 52.856-45.558 83.523-72.66 196.448-72.66 342.781zM814.545 634.182c0-138.758 25.262-244.015 66.976-320.492 14.298-26.214 29.469-46.947 44.464-62.775 8.589-9.066 14.885-14.313 17.833-16.278 19.159-12.773 10.117-42.637-12.909-42.637h-837.818c-23.026 0-32.068 29.864-12.909 42.637 2.947 1.965 9.244 7.212 17.833 16.278 14.995 15.828 30.166 36.561 44.464 62.775 41.715 76.477 66.976 181.734 66.976 320.492 0 167.091 135.454 302.545 302.545 302.545s302.545-135.454 302.545-302.545zM572.393 40.769c6.449 11.118 20.691 14.903 31.809 8.453s14.903-20.691 8.453-31.809c-20.817-35.887-59.167-57.976-100.655-57.976s-79.837 22.089-100.655 57.976c-6.449 11.118-2.665 25.359 8.453 31.809s25.359 2.665 31.809-8.453c12.49-21.532 35.5-34.785 60.393-34.785s47.902 13.253 60.393 34.785z" />
<glyph unicode="&#xe901;" glyph-name="belloff" d="M567.36 74.704c5.912 10.191 18.966 13.661 29.158 7.749s13.661-18.966 7.749-29.158c-19.083-32.896-54.236-53.144-92.267-53.144s-73.184 20.248-92.267 53.144c-5.912 10.191-2.443 23.246 7.749 29.158s23.246 2.443 29.158-7.749c11.45-19.738 32.542-31.887 55.36-31.887s43.91 12.149 55.36 31.887zM815.459 410.955c3.105-11.366-3.592-23.096-14.958-26.201s-23.096 3.592-26.201 14.958c-19.512 71.429-28.814 145.26-27.631 219.296 0.188 11.781 9.891 21.178 21.671 20.99s21.178-9.891 20.99-21.671c-1.119-70.010 7.678-139.826 26.129-207.371zM725.333 256c11.782 0 21.333-9.551 21.333-21.333s-9.551-21.333-21.333-21.333h-597.333c-21.107 0-29.396 27.375-11.834 39.084 2.702 1.801 8.473 6.611 16.347 14.921 13.745 14.509 27.652 33.514 40.759 57.544 38.239 70.104 61.395 166.59 61.395 293.734-0.064 27.311 3.995 54.475 12.040 80.574 3.471 11.259 15.412 17.573 26.671 14.102s17.573-15.412 14.102-26.671c-6.78-21.996-10.201-44.889-10.147-67.956 0-134.139-24.843-237.653-66.605-314.216-10.521-19.288-21.155-35.348-31.335-48.451h545.939zM789.334 618.635c-0.017-11.782-9.583-21.319-21.365-21.302s-21.319 9.583-21.302 21.365c0.128 86.622-47.472 166.27-123.821 207.186s-169.029 36.445-241.086-11.63c-9.801-6.539-23.047-3.895-29.586 5.906s-3.895 23.047 5.906 29.586c85.157 56.816 194.689 62.1 284.919 13.745s146.486-142.485 146.334-244.856zM27.582 902.248c-8.331 8.331-8.331 21.839 0 30.17s21.839 8.331 30.17 0l938.667-938.667c8.331-8.331 8.331-21.839 0-30.17s-21.839-8.331-30.17 0l-938.667 938.667z" />
<glyph unicode="&#xe902;" glyph-name="box" d="M954.182 261.818c-0.043-41.554-22.216-79.913-58.272-100.73l-325.728-186.13c-36.003-20.786-80.361-20.786-116.274-0.052l-325.908 186.233c-35.966 20.765-58.139 59.124-58.182 100.678v372.388c0.043 41.53 22.216 79.89 58.272 100.706l325.728 186.13c36.003 20.786 80.361 20.786 116.274 0.052l325.908-186.233c35.966-20.765 58.139-59.124 58.182-100.678v-372.364zM907.636 634.158c-0.026 24.918-13.329 47.934-34.819 60.341l-325.908 186.233c-21.602 12.472-48.216 12.472-69.908-0.052l-325.728-186.13c-21.58-12.459-34.884-35.475-34.909-60.369v-372.34c0.026-24.918 13.329-47.934 34.819-60.341l325.908-186.233c21.602-12.472 48.216-12.472 69.908 0.052l325.728 186.13c21.576 12.457 34.88 35.468 34.909 60.382v372.327zM512 474.421l394.689 228.314c11.126 6.436 25.362 2.634 31.798-8.492s2.634-25.362-8.492-31.798l-406.342-235.055c-7.209-4.17-16.097-4.17-23.306 0l-406.342 235.055c-11.126 6.436-14.928 20.672-8.492 31.798s20.672 14.928 31.798 8.492l394.689-228.314zM535.273-21.178c0-12.853-10.42-23.273-23.273-23.273s-23.273 10.42-23.273 23.273v469.178c0 12.853 10.42 23.273 23.273 23.273s23.273-10.42 23.273-23.273v-469.178z" />
<glyph unicode="&#xe903;" glyph-name="cart" d="M384-21.333c-35.346 0-64 28.654-64 64s28.654 64 64 64c35.346 0 64-28.654 64-64s-28.654-64-64-64zM384 21.333c11.782 0 21.333 9.551 21.333 21.333s-9.551 21.333-21.333 21.333c-11.782 0-21.333-9.551-21.333-21.333s9.551-21.333 21.333-21.333zM853.333-21.333c-35.346 0-64 28.654-64 64s28.654 64 64 64c35.346 0 64-28.654 64-64s-28.654-64-64-64zM853.333 21.333c11.782 0 21.333 9.551 21.333 21.333s-9.551 21.333-21.333 21.333c-11.782 0-21.333-9.551-21.333-21.333s9.551-21.333 21.333-21.333zM195.847 874.667h-153.18c-11.782 0-21.333 9.551-21.333 21.333s9.551 21.333 21.333 21.333h170.667c10.168 0 18.923-7.176 20.918-17.147l39.267-196.187h707.815c13.384 0 23.463-12.182 20.956-25.33l-68.298-358.133c-10.066-50.679-55.007-86.857-106.258-85.871l-414.311 0.004c-51.66-0.99-96.601 35.188-106.661 85.836l-71.405 356.757c-0.205 0.784-0.366 1.585-0.481 2.402l-39.029 195.001zM282.058 661.333l66.546-332.484c6.040-30.407 33.004-52.114 64.409-51.516l415.129-0.004c30.996-0.594 57.96 21.113 63.969 51.36l63.436 332.644h-673.489z" />
<glyph unicode="&#xe904;" glyph-name="eye" d="M69.177 443.792c6.355-11.299 13.945-23.928 22.744-37.552 25.178-38.986 54.915-77.985 88.976-114.316 96.329-102.751 207.206-163.924 331.103-163.924s234.775 61.174 331.103 163.924c34.061 36.332 63.797 75.33 88.976 114.316 8.799 13.624 16.388 26.253 22.744 37.552 0.846 1.505 1.628 2.909 2.345 4.208-0.717 1.299-1.499 2.703-2.345 4.208-6.355 11.299-13.945 23.928-22.744 37.552-25.178 38.986-54.915 77.985-88.976 114.316-96.329 102.751-207.206 163.924-331.103 163.924s-234.775-61.174-331.103-163.924c-34.061-36.332-63.797-75.33-88.976-114.316-8.799-13.624-16.388-26.253-22.744-37.552-0.846-1.505-1.628-2.909-2.345-4.208 0.717-1.299 1.499-2.703 2.345-4.208zM23.586 457.541c1.484 2.969 4.292 8.274 8.404 15.585 6.77 12.035 14.805 25.406 24.089 39.782 26.488 41.014 57.752 82.015 93.691 120.35 103.671 110.583 224.794 177.409 362.23 177.409s258.559-66.826 362.23-177.409c35.939-38.335 67.203-79.336 93.691-120.35 9.285-14.376 17.32-27.747 24.089-39.782 4.112-7.311 6.92-12.616 8.404-15.585 3.003-6.006 3.003-13.075 0-19.081-1.484-2.969-4.292-8.274-8.404-15.585-6.77-12.035-14.805-25.406-24.089-39.782-26.488-41.014-57.752-82.015-93.691-120.35-103.671-110.583-224.794-177.409-362.23-177.409s-258.559 66.826-362.23 177.409c-35.939 38.335-67.203 79.336-93.691 120.35-9.285 14.376-17.32 27.747-24.089 39.782-4.112 7.311-6.92 12.616-8.404 15.585-3.003 6.006-3.003 13.075 0 19.081zM512 298.667c-82.475 0-149.333 66.859-149.333 149.333s66.859 149.333 149.333 149.333c82.475 0 149.333-66.859 149.333-149.333s-66.859-149.333-149.333-149.333zM512 341.333c58.91 0 106.667 47.756 106.667 106.667s-47.756 106.667-106.667 106.667c-58.91 0-106.667-47.756-106.667-106.667s47.756-106.667 106.667-106.667z" />
<glyph unicode="&#xe905;" glyph-name="filter" d="M192 64c0-11.782-9.551-21.333-21.333-21.333s-21.333 9.551-21.333 21.333v298.667c0 11.782 9.551 21.333 21.333 21.333s21.333-9.551 21.333-21.333v-298.667zM192 533.333c0-11.782-9.551-21.333-21.333-21.333s-21.333 9.551-21.333 21.333v298.667c0 11.782 9.551 21.333 21.333 21.333s21.333-9.551 21.333-21.333v-298.667zM533.333 64c0-11.782-9.551-21.333-21.333-21.333s-21.333 9.551-21.333 21.333v384c0 11.782 9.551 21.333 21.333 21.333s21.333-9.551 21.333-21.333v-384zM533.333 618.667c0-11.782-9.551-21.333-21.333-21.333s-21.333 9.551-21.333 21.333v213.333c0 11.782 9.551 21.333 21.333 21.333s21.333-9.551 21.333-21.333v-213.333zM874.667 64c0-11.782-9.551-21.333-21.333-21.333s-21.333 9.551-21.333 21.333v213.333c0 11.782 9.551 21.333 21.333 21.333s21.333-9.551 21.333-21.333v-213.333zM874.667 448c0-11.782-9.551-21.333-21.333-21.333s-21.333 9.551-21.333 21.333v384c0 11.782 9.551 21.333 21.333 21.333s21.333-9.551 21.333-21.333v-384zM42.667 341.333c-11.782 0-21.333 9.551-21.333 21.333s9.551 21.333 21.333 21.333h256c11.782 0 21.333-9.551 21.333-21.333s-9.551-21.333-21.333-21.333h-256zM384 597.333c-11.782 0-21.333 9.551-21.333 21.333s9.551 21.333 21.333 21.333h256c11.782 0 21.333-9.551 21.333-21.333s-9.551-21.333-21.333-21.333h-256zM725.333 256c-11.782 0-21.333 9.551-21.333 21.333s9.551 21.333 21.333 21.333h256c11.782 0 21.333-9.551 21.333-21.333s-9.551-21.333-21.333-21.333h-256z" />
<glyph unicode="&#xe906;" glyph-name="filter2" d="M395.636 418.068l-366.861 433.813c-12.792 15.127-2.040 38.301 17.77 38.301h930.909c19.81 0 30.562-23.174 17.77-38.301l-366.861-433.813v-388.977c0-17.301-18.207-28.553-33.681-20.816l-186.182 93.091c-7.884 3.942-12.865 12.001-12.865 20.816v295.886zM927.295 843.636h-830.59l339.974-402.019c3.553-4.201 5.502-9.526 5.502-15.028v-290.024l139.636-69.818v359.842c0 5.502 1.949 10.826 5.502 15.028l339.974 402.019z" />
<glyph unicode="&#xe907;" glyph-name="heart" d="M1021.758 610.909c0-74.090-29.441-145.144-81.84-197.518l-411.462-411.462c-9.089-9.089-23.824-9.089-32.913 0l-411.462 411.462c-109.086 109.086-109.086 285.95 0 395.036s285.95 109.086 395.036 0l32.882-32.882 32.878 32.878c52.378 52.402 123.432 81.843 197.522 81.843 74.089 0 145.141-29.44 197.518-81.84 52.4-52.377 81.84-123.429 81.84-197.518zM512 51.298l395.009 395.009c43.668 43.648 68.203 102.86 68.203 164.602s-24.534 120.954-68.203 164.602c-43.656 43.676-102.867 68.211-164.609 68.211s-120.954-24.534-164.606-68.207l-49.338-49.338c-9.089-9.089-23.824-9.089-32.913 0l-49.338 49.338c-90.909 90.909-238.302 90.909-329.211 0s-90.909-238.302 0-329.211l395.006-395.006z" />
<glyph unicode="&#xe908;" glyph-name="heart2" horiz-adv-x="1126" d="M1123.933 627.2c0-81.499-32.385-159.659-90.024-217.27l-452.608-452.608c-9.997-9.997-26.206-9.997-36.204 0l-452.608 452.608c-119.995 119.995-119.995 314.545 0 434.54s314.545 119.995 434.54 0l36.17-36.17 36.166 36.166c57.615 57.642 135.775 90.028 217.274 90.028 81.497 0 159.655-32.384 217.27-90.024 57.64-57.615 90.024-135.772 90.024-217.27z" />
<glyph unicode="&#xe909;" glyph-name="link" d="M400.273 387.515c-7.699 10.292-5.596 24.877 4.696 32.576s24.877 5.596 32.576-4.696c36.401-48.664 92.144-79.119 152.761-83.461s120.131 17.859 163.099 60.843l139.353 139.348c79.377 82.186 78.242 212.824-2.551 293.617s-211.432 81.929-293.377 2.787l-80.058-79.593c-9.115-9.062-23.85-9.019-32.912 0.096s-9.019 23.85 0.096 32.912l80.299 79.828c100.449 97.017 260.118 95.629 358.866-3.118s100.135-258.417 2.835-359.154l-139.633-139.633c-52.512-52.532-125.252-79.665-199.34-74.359s-142.218 42.529-186.708 102.007zM623.727 508.485c7.699-10.292 5.596-24.877-4.696-32.576s-24.877-5.596-32.576 4.696c-36.401 48.664-92.144 79.119-152.761 83.461s-120.131-17.859-163.099-60.843l-139.353-139.348c-79.377-82.186-78.242-212.824 2.551-293.617s211.432-81.929 293.329-2.835l79.593 79.593c9.089 9.089 23.824 9.089 32.913 0s9.089-23.824 0-32.913l-79.881-79.876c-100.449-97.017-260.118-95.629-358.866 3.118s-100.135 258.417-2.835 359.154l139.633 139.633c52.512 52.532 125.252 79.665 199.34 74.359s142.218-42.529 186.708-102.007z" />
<glyph unicode="&#xe90a;" glyph-name="link2" d="M793.6 396.8c0 14.138 11.462 25.6 25.6 25.6s25.6-11.462 25.6-25.6v-307.2c0-70.692-57.308-128-128-128h-563.2c-70.692 0-128 57.308-128 128v563.2c0 70.692 57.308 128 128 128h307.2c14.138 0 25.6-11.462 25.6-25.6s-11.462-25.6-25.6-25.6h-307.2c-42.415 0-76.8-34.385-76.8-76.8v-563.2c0-42.415 34.385-76.8 76.8-76.8h563.2c42.415 0 76.8 34.385 76.8 76.8v307.2zM947.2 883.2h-281.6c-14.138 0-25.6 11.462-25.6 25.6s11.462 25.6 25.6 25.6h307.2c14.138 0 25.6-11.462 25.6-25.6v-307.2c0-14.138-11.462-25.6-25.6-25.6s-25.6 11.462-25.6 25.6v281.6zM427.702 327.498c-9.997-9.997-26.206-9.997-36.204 0s-9.997 26.206 0 36.204l563.2 563.2c9.997 9.997 26.206 9.997 36.204 0s9.997-26.206 0-36.204l-563.2-563.2z" />
<glyph unicode="&#xe90b;" glyph-name="moreh" d="M512 362.667c-47.128 0-85.333 38.205-85.333 85.333s38.205 85.333 85.333 85.333c47.128 0 85.333-38.205 85.333-85.333s-38.205-85.333-85.333-85.333zM512 419.556c15.709 0 28.444 12.735 28.444 28.444s-12.735 28.444-28.444 28.444c-15.709 0-28.444-12.735-28.444-28.444s12.735-28.444 28.444-28.444zM910.222 362.667c-47.128 0-85.333 38.205-85.333 85.333s38.205 85.333 85.333 85.333c47.128 0 85.333-38.205 85.333-85.333s-38.205-85.333-85.333-85.333zM910.222 419.556c15.709 0 28.444 12.735 28.444 28.444s-12.735 28.444-28.444 28.444c-15.709 0-28.444-12.735-28.444-28.444s12.735-28.444 28.444-28.444zM113.778 362.667c-47.128 0-85.333 38.205-85.333 85.333s38.205 85.333 85.333 85.333c47.128 0 85.333-38.205 85.333-85.333s-38.205-85.333-85.333-85.333zM113.778 419.556c15.709 0 28.444 12.735 28.444 28.444s-12.735 28.444-28.444 28.444c-15.709 0-28.444-12.735-28.444-28.444s12.735-28.444 28.444-28.444z" />
<glyph unicode="&#xe90c;" glyph-name="x" d="M924.997 912.717c14.282 14.282 37.438 14.282 51.72 0s14.282-37.438 0-51.72l-877.714-877.714c-14.282-14.282-37.438-14.282-51.72 0s-14.282 37.438 0 51.72l877.714 877.714zM47.283 860.997c-14.282 14.282-14.282 37.438 0 51.72s37.438 14.282 51.72 0l877.714-877.714c14.282-14.282 14.282-37.438 0-51.72s-37.438-14.282-51.72 0l-877.714 877.714z" />
<glyph unicode="&#xe90d;" glyph-name="settings" d="M512 298.667c-82.475 0-149.333 66.859-149.333 149.333s66.859 149.333 149.333 149.333c82.475 0 149.333-66.859 149.333-149.333s-66.859-149.333-149.333-149.333zM512 341.333c58.91 0 106.667 47.756 106.667 106.667s-47.756 106.667-106.667 106.667c-58.91 0-106.667-47.756-106.667-106.667s47.756-106.667 106.667-106.667zM892.16 384h3.84c35.346 0 64 28.654 64 64s-28.654 64-64 64h-7.338c-36.562 0.146-69.547 21.99-83.95 55.596l-1.384 6.745c-13.146 33.493-5.497 71.759 19.988 97.811l2.568 2.568c12.018 12.004 18.77 28.294 18.77 45.28s-6.753 33.276-18.787 45.297c-12.004 12.018-28.294 18.77-45.28 18.77s-33.276-6.753-45.288-18.779l-2.727-2.725c-26.808-26.223-66.877-33.488-100.975-18.438-33.606 14.403-55.45 47.388-55.596 84.035v3.84c0 35.346-28.654 64-64 64s-64-28.654-64-64v-7.338c-0.146-36.562-21.99-69.547-55.596-83.95l-6.745-1.384c-33.493-13.146-71.759-5.497-97.811 19.988l-2.568 2.568c-12.004 12.018-28.294 18.77-45.28 18.77s-33.276-6.753-45.297-18.787c-12.018-12.004-18.77-28.294-18.77-45.28s6.753-33.276 18.779-45.288l2.725-2.727c26.223-26.808 33.488-66.877 18.852-99.935-13.002-35.352-46.293-59.163-84.449-60.049h-3.84c-35.346 0-64-28.654-64-64s28.654-64 64-64h7.338c36.562-0.146 69.547-21.99 83.859-55.386 15.141-34.308 7.876-74.377-18.512-101.352l-2.568-2.568c-12.018-12.004-18.77-28.294-18.77-45.28s6.753-33.276 18.787-45.297c12.004-12.018 28.294-18.77 45.28-18.77s33.276 6.753 45.288 18.779l2.727 2.725c26.808 26.223 66.877 33.488 99.935 18.852 35.352-13.002 59.163-46.293 60.049-84.449v-3.84c0-35.346 28.654-64 64-64s64 28.654 64 64v7.338c0.146 36.562 21.99 69.547 55.386 83.859 34.308 15.141 74.377 7.876 101.352-18.512l2.568-2.568c12.004-12.018 28.294-18.77 45.28-18.77s33.276 6.753 45.297 18.787c12.018 12.004 18.77 28.294 18.77 45.28s-6.753 33.276-18.779 45.288l-2.725 2.727c-26.196 26.78-33.473 66.795-18.393 101.080 14.427 33.547 47.381 55.345 83.99 55.491zM888.747 554.667h7.253c58.91 0 106.667-47.756 106.667-106.667s-47.756-106.667-106.667-106.667h-3.755c-19.557-0.078-37.199-11.762-44.903-29.737-8.19-18.56-4.304-39.993 9.557-54.165l2.552-2.552c20.030-20.007 31.284-47.156 31.284-75.467s-11.254-55.459-31.267-75.45c-20.007-20.030-47.156-31.284-75.467-31.284s-55.459 11.254-75.458 31.276l-2.393 2.395c-14.339 14.026-35.771 17.912-54.332 9.722-17.975-7.704-29.659-25.347-29.737-44.818v-7.253c0-58.91-47.756-106.667-106.667-106.667s-106.667 47.756-106.667 106.667l0.006 3.341c-0.471 20.142-13.207 37.949-33.366 45.408-18.351 8.099-39.783 4.213-53.955-9.648l-2.552-2.552c-20.007-20.030-47.156-31.284-75.467-31.284s-55.459 11.254-75.45 31.267c-20.030 20.007-31.284 47.156-31.284 75.467s11.254 55.459 31.276 75.458l2.395 2.393c14.026 14.339 17.912 35.771 9.722 54.332-7.704 17.975-25.347 29.659-44.818 29.737h-7.253c-58.91 0-106.667 47.756-106.667 106.667s47.756 106.667 106.667 106.667l3.341-0.006c20.142 0.471 37.949 13.207 45.408 33.366 8.099 18.351 4.213 39.783-9.648 53.955l-2.552 2.552c-20.030 20.007-31.284 47.156-31.284 75.467s11.254 55.459 31.267 75.45c20.007 20.030 47.156 31.284 75.467 31.284s55.459-11.254 75.458-31.276l2.393-2.395c14.339-14.026 35.771-17.912 54.122-9.813l6.279 1.324c16.462 8.245 27.008 25.090 27.082 43.586v7.253c0 58.91 47.756 106.667 106.667 106.667s106.667-47.756 106.667-106.667v-3.755c0.078-19.557 11.762-37.199 29.947-44.995 18.351-8.099 39.783-4.213 53.955 9.648l2.552 2.552c20.007 20.030 47.156 31.284 75.467 31.284s55.459-11.254 75.45-31.267c20.030-20.007 31.284-47.156 31.284-75.467s-11.254-55.459-31.276-75.458l-2.395-2.393c-14.026-14.339-17.912-35.771-9.813-54.122l1.324-6.279c8.245-16.462 25.090-27.008 43.586-27.082z" />
<glyph unicode="&#xe90e;" glyph-name="user" d="M947.2-12.8c0-14.138-11.462-25.6-25.6-25.6s-25.6 11.462-25.6 25.6v102.4c0 98.969-80.231 179.2-179.2 179.2h-409.6c-98.969 0-179.2-80.231-179.2-179.2v-102.4c0-14.138-11.462-25.6-25.6-25.6s-25.6 11.462-25.6 25.6v102.4c0 127.246 103.154 230.4 230.4 230.4h409.6c127.246 0 230.4-103.154 230.4-230.4v-102.4zM512 473.6c-127.246 0-230.4 103.154-230.4 230.4s103.154 230.4 230.4 230.4c127.246 0 230.4-103.154 230.4-230.4s-103.154-230.4-230.4-230.4zM512 524.8c98.969 0 179.2 80.231 179.2 179.2s-80.231 179.2-179.2 179.2c-98.969 0-179.2-80.231-179.2-179.2s80.231-179.2 179.2-179.2z" />
<glyph unicode="&#xe90f;" glyph-name="video" d="M968.934 678.693c14.12 10.086 33.733-0.008 33.733-17.36v-426.667c0-17.352-19.613-27.445-33.733-17.36l-298.667 213.333c-11.911 8.508-11.911 26.211 0 34.719l298.667 213.333zM719.37 448l240.63-171.879v343.757l-240.63-171.879zM128 725.333c-35.346 0-64-28.654-64-64v-426.667c0-35.346 28.654-64 64-64h469.333c35.346 0 64 28.654 64 64v426.667c0 35.346-28.654 64-64 64h-469.333zM128 768h469.333c58.91 0 106.667-47.756 106.667-106.667v-426.667c0-58.91-47.756-106.667-106.667-106.667h-469.333c-58.91 0-106.667 47.756-106.667 106.667v426.667c0 58.91 47.756 106.667 106.667 106.667z" />
<glyph unicode="&#xe910;" glyph-name="zoom" d="M307.2 934.4c14.138 0 25.6-11.462 25.6-25.6s-11.462-25.6-25.6-25.6h-153.6c-42.415 0-76.8-34.385-76.8-76.8v-153.6c0-14.138-11.462-25.6-25.6-25.6s-25.6 11.462-25.6 25.6v153.6c0 70.692 57.308 128 128 128h153.6zM998.4 652.8c0-14.138-11.462-25.6-25.6-25.6s-25.6 11.462-25.6 25.6v153.6c0 42.415-34.385 76.8-76.8 76.8h-153.6c-14.138 0-25.6 11.462-25.6 25.6s11.462 25.6 25.6 25.6h153.6c70.692 0 128-57.308 128-128v-153.6zM716.8-38.4c-14.138 0-25.6 11.462-25.6 25.6s11.462 25.6 25.6 25.6h153.6c42.415 0 76.8 34.385 76.8 76.8v153.6c0 14.138 11.462 25.6 25.6 25.6s25.6-11.462 25.6-25.6v-153.6c0-70.692-57.308-128-128-128h-153.6zM25.6 243.2c0 14.138 11.462 25.6 25.6 25.6s25.6-11.462 25.6-25.6v-153.6c0-42.415 34.385-76.8 76.8-76.8h153.6c14.138 0 25.6-11.462 25.6-25.6s-11.462-25.6-25.6-25.6h-153.6c-70.692 0-128 57.308-128 128v153.6z" />
<glyph unicode="&#xe911;" glyph-name="eye2" horiz-adv-x="1365" d="M92.236 442.39c8.474-15.065 18.593-31.904 30.325-50.069 33.571-51.981 73.22-103.98 118.635-152.422 128.438-137.001 276.274-218.565 441.471-218.565s313.033 81.565 441.471 218.565c45.414 48.442 85.063 100.441 118.635 152.422 11.732 18.165 21.851 35.004 30.325 50.069 1.129 2.006 2.171 3.878 3.127 5.61-0.956 1.732-1.998 3.604-3.127 5.61-8.474 15.065-18.593 31.904-30.325 50.069-33.571 51.981-73.22 103.98-118.635 152.422-128.438 137.001-276.274 218.565-441.471 218.565s-313.033-81.565-441.471-218.565c-45.414-48.442-85.063-100.441-118.635-152.422-11.732-18.165-21.851-35.004-30.325-50.069-1.129-2.006-2.171-3.878-3.127-5.61 0.956-1.732 1.998-3.604 3.127-5.61zM31.447 460.721c1.979 3.958 5.723 11.032 11.206 20.78 9.026 16.046 19.74 33.874 32.119 53.042 35.318 54.685 77.002 109.353 124.921 160.467 138.228 147.444 299.726 236.546 482.974 236.546s344.745-89.102 482.974-236.546c47.919-51.113 89.603-105.782 124.921-160.467 12.379-19.168 23.093-36.996 32.119-53.042 5.483-9.748 9.226-16.822 11.206-20.78 4.004-8.008 4.004-17.434 0-25.441-1.979-3.958-5.723-11.032-11.206-20.78-9.026-16.046-19.74-33.874-32.119-53.042-35.318-54.685-77.002-109.353-124.921-160.467-138.228-147.444-299.726-236.546-482.974-236.546s-344.745 89.102-482.974 236.546c-47.919 51.114-89.603 105.782-124.921 160.467-12.379 19.168-23.093 36.996-32.119 53.042-5.483 9.748-9.226 16.822-11.206 20.78-4.004 8.008-4.004 17.434 0 25.441zM682.667 248.889c-109.966 0-199.111 89.145-199.111 199.111s89.145 199.111 199.111 199.111c109.966 0 199.111-89.145 199.111-199.111s-89.145-199.111-199.111-199.111zM682.667 305.778c78.547 0 142.222 63.675 142.222 142.222s-63.675 142.222-142.222 142.222c-78.547 0-142.222-63.675-142.222-142.222s63.675-142.222 142.222-142.222z" />
<glyph unicode="&#xe912;" glyph-name="info" d="M512-40.727c-269.917 0-488.727 218.811-488.727 488.727s218.811 488.727 488.727 488.727c269.917 0 488.727-218.811 488.727-488.727s-218.811-488.727-488.727-488.727zM512 5.818c244.21 0 442.182 197.972 442.182 442.182s-197.972 442.182-442.182 442.182c-244.21 0-442.182-197.972-442.182-442.182s197.972-442.182 442.182-442.182zM535.273 261.818c0-12.853-10.42-23.273-23.273-23.273s-23.273 10.42-23.273 23.273v186.182c0 12.853 10.42 23.273 23.273 23.273s23.273-10.42 23.273-23.273v-186.182zM495.544 617.726c-9.089 9.089-9.089 23.824 0 32.913s23.824 9.089 32.913 0c9.089-9.089 9.089-23.824 0-32.913s-23.824-9.089-32.913 0z" />
<glyph unicode="&#xe913;" glyph-name="x2" d="M937.927 899.787c7.141 7.141 18.719 7.141 25.86 0s7.141-18.719 0-25.86l-877.714-877.714c-7.141-7.141-18.719-7.141-25.86 0s-7.141 18.719 0 25.86l877.714 877.714zM60.213 873.927c-7.141 7.141-7.141 18.719 0 25.86s18.719 7.141 25.86 0l877.714-877.714c7.141-7.141 7.141-18.719 0-25.86s-18.719-7.141-25.86 0l-877.714 877.714z" />
<glyph unicode="&#xe914;" glyph-name="search" d="M409.6 166.4c-212.077 0-384 171.923-384 384s171.923 384 384 384c212.077 0 384-171.923 384-384s-171.923-384-384-384zM409.6 217.6c183.8 0 332.8 149 332.8 332.8s-149 332.8-332.8 332.8c-183.8 0-332.8-149-332.8-332.8s149-332.8 332.8-332.8zM990.902 5.302c9.997-9.997 9.997-26.206 0-36.204s-26.206-9.997-36.204 0l-281.6 281.6c-9.997 9.997-9.997 26.206 0 36.204s26.206 9.997 36.204 0l281.6-281.6z" />
<glyph unicode="&#xe915;" glyph-name="edit" d="M465.455 843.636c12.853 0 23.273-10.42 23.273-23.273s-10.42-23.273-23.273-23.273h-325.818c-38.56 0-69.818-31.259-69.818-69.818v-651.636c0-38.56 31.259-69.818 69.818-69.818h651.636c38.56 0 69.818 31.259 69.818 69.818v325.818c0 12.853 10.42 23.273 23.273 23.273s23.273-10.42 23.273-23.273v-325.818c0-64.266-52.098-116.364-116.364-116.364h-651.636c-64.266 0-116.364 52.098-116.364 116.364v651.636c0 64.266 52.098 116.364 116.364 116.364h325.818zM500.102 329.378l437.624 437.624c29.471 29.471 29.471 77.253 0 106.724s-77.253 29.471-106.724 0l-437.624-437.624-35.575-142.298 142.298 35.575zM970.638 906.638c47.648-47.648 47.648-124.901 0-172.549l-442.182-442.182c-2.983-2.983-6.72-5.099-10.812-6.122l-186.182-46.545c-17.044-4.261-32.483 11.178-28.222 28.222l46.545 186.182c1.023 4.092 3.139 7.829 6.122 10.812l442.182 442.182c47.648 47.648 124.901 47.648 172.549 0z" />
<glyph unicode="&#xe916;" glyph-name="feather" d="M598.299 105.75c-4.366-4.379-10.296-6.841-16.481-6.841h-395.636c-12.853 0-23.273 10.42-23.273 23.273v395.636c0 6.172 2.452 12.092 6.816 16.456l314.182 314.182c118.212 118.212 309.872 118.212 428.084 0 118.208-118.208 118.212-309.858 0.012-428.071l-313.704-314.635zM572.158 145.455l306.92 307.831c100.035 100.035 100.035 262.223 0 362.258s-262.223 100.035-362.258 0l-307.365-307.365v-362.724h362.704zM681.726 650.638c9.089 9.089 23.824 9.089 32.913 0s9.089-23.824 0-32.913l-651.636-651.636c-9.089-9.089-23.824-9.089-32.913 0s-9.089 23.824 0 32.913l651.636 651.636zM768 331.636c12.853 0 23.273-10.42 23.273-23.273s-10.42-23.273-23.273-23.273h-395.636c-12.853 0-23.273 10.42-23.273 23.273s10.42 23.273 23.273 23.273h395.636z" />
<glyph unicode="&#xe917;" glyph-name="grid" d="M76.8 883.2v-307.2h307.2v307.2h-307.2zM51.2 934.4h358.4c14.138 0 25.6-11.462 25.6-25.6v-358.4c0-14.138-11.462-25.6-25.6-25.6h-358.4c-14.138 0-25.6 11.462-25.6 25.6v358.4c0 14.138 11.462 25.6 25.6 25.6zM640 883.2v-307.2h307.2v307.2h-307.2zM614.4 934.4h358.4c14.138 0 25.6-11.462 25.6-25.6v-358.4c0-14.138-11.462-25.6-25.6-25.6h-358.4c-14.138 0-25.6 11.462-25.6 25.6v358.4c0 14.138 11.462 25.6 25.6 25.6zM640 320v-307.2h307.2v307.2h-307.2zM614.4 371.2h358.4c14.138 0 25.6-11.462 25.6-25.6v-358.4c0-14.138-11.462-25.6-25.6-25.6h-358.4c-14.138 0-25.6 11.462-25.6 25.6v358.4c0 14.138 11.462 25.6 25.6 25.6zM76.8 320v-307.2h307.2v307.2h-307.2zM51.2 371.2h358.4c14.138 0 25.6-11.462 25.6-25.6v-358.4c0-14.138-11.462-25.6-25.6-25.6h-358.4c-14.138 0-25.6 11.462-25.6 25.6v358.4c0 14.138 11.462 25.6 25.6 25.6z" />
<glyph unicode="&#xe918;" glyph-name="home" horiz-adv-x="931" d="M69.818 576.254v-500.618c0-38.56 31.259-69.818 69.818-69.818h651.636c38.56 0 69.818 31.259 69.818 69.818v500.618l-395.636 307.717-395.636-307.717zM32.257 606.007l418.909 325.818c8.404 6.536 20.172 6.536 28.576 0l418.909-325.818c5.669-4.409 8.985-11.189 8.985-18.37v-512c0-64.266-52.098-116.364-116.364-116.364h-651.636c-64.266 0-116.364 52.098-116.364 116.364v512c0 7.182 3.316 13.961 8.985 18.37zM349.091 424.727v-442.182c0-12.853-10.42-23.273-23.273-23.273s-23.273 10.42-23.273 23.273v465.455c0 12.853 10.42 23.273 23.273 23.273h279.273c12.853 0 23.273-10.42 23.273-23.273v-465.455c0-12.853-10.42-23.273-23.273-23.273s-23.273 10.42-23.273 23.273v442.182h-232.727z" />
<glyph unicode="&#xe919;" glyph-name="menu" d="M972.8 576c14.138 0 25.6-11.462 25.6-25.6s-11.462-25.6-25.6-25.6h-921.6c-14.138 0-25.6 11.462-25.6 25.6s11.462 25.6 25.6 25.6h921.6zM972.8 780.8c14.138 0 25.6-11.462 25.6-25.6s-11.462-25.6-25.6-25.6h-921.6c-14.138 0-25.6 11.462-25.6 25.6s11.462 25.6 25.6 25.6h921.6zM972.8 371.2c14.138 0 25.6-11.462 25.6-25.6s-11.462-25.6-25.6-25.6h-921.6c-14.138 0-25.6 11.462-25.6 25.6s11.462 25.6 25.6 25.6h921.6zM972.8 166.4c14.138 0 25.6-11.462 25.6-25.6s-11.462-25.6-25.6-25.6h-921.6c-14.138 0-25.6 11.462-25.6 25.6s11.462 25.6 25.6 25.6h921.6z" />
<glyph unicode="&#xe91a;" glyph-name="sidebar" d="M153.6 883.2c-42.415 0-76.8-34.385-76.8-76.8v-716.8c0-42.415 34.385-76.8 76.8-76.8h716.8c42.415 0 76.8 34.385 76.8 76.8v716.8c0 42.415-34.385 76.8-76.8 76.8h-716.8zM153.6 934.4h716.8c70.692 0 128-57.308 128-128v-716.8c0-70.692-57.308-128-128-128h-716.8c-70.692 0-128 57.308-128 128v716.8c0 70.692 57.308 128 128 128zM332.8 908.8c0 14.138 11.462 25.6 25.6 25.6s25.6-11.462 25.6-25.6v-921.6c0-14.138-11.462-25.6-25.6-25.6s-25.6 11.462-25.6 25.6v921.6z" />
<glyph unicode="&#xe91b;" glyph-name="trello" d="M153.6 883.2c-42.415 0-76.8-34.385-76.8-76.8v-716.8c0-42.415 34.385-76.8 76.8-76.8h716.8c42.415 0 76.8 34.385 76.8 76.8v716.8c0 42.415-34.385 76.8-76.8 76.8h-716.8zM153.6 934.4h716.8c70.692 0 128-57.308 128-128v-716.8c0-70.692-57.308-128-128-128h-716.8c-70.692 0-128 57.308-128 128v716.8c0 70.692 57.308 128 128 128zM281.6 678.4v-409.6h102.4v409.6h-102.4zM256 729.6h153.6c14.138 0 25.6-11.462 25.6-25.6v-460.8c0-14.138-11.462-25.6-25.6-25.6h-153.6c-14.138 0-25.6 11.462-25.6 25.6v460.8c0 14.138 11.462 25.6 25.6 25.6zM640 678.4v-204.8h102.4v204.8h-102.4zM614.4 729.6h153.6c14.138 0 25.6-11.462 25.6-25.6v-256c0-14.138-11.462-25.6-25.6-25.6h-153.6c-14.138 0-25.6 11.462-25.6 25.6v256c0 14.138 11.462 25.6 25.6 25.6z" />
</font>
</defs>
</svg>
